Diario de una Doctora T.1


^^^Descargar Diario de una Doctora T.1^^^

Diario de una Doctora T.1 [Temporada-Capitulos][Subtitulada][MEGA]

Diario de una Doctora
( Los Hombres son la Mejor Medicina ) | Temporada 1 | Capitulos [8/8]




· · · · · · · · · · · · · · · : : | Ficha Técnica | : : · · · · · · · · · · · · · · ·

Título: Diario de una Doctora ( Los Hombres son la Mejor Medicina )
Título Original: Doctor’s Diary – Männer sind die beste Medizin
Año: 2008
País: Germany
Duración: 60 min.
Género: Comedy | Romance
Creador: Bora Dagtekin Steffi Ackermann
Productora: RTL / Polyphon Film-und Fernsehgesellschaft


· · · · · · · · · · · · · · · : : | Reparto | : : · · · · · · · · · · · · · · ·

✭ Diana Amft | ✭ Peter Prager | ✭ Ursela Monn | ✭ Florian David Fitz | ✭ Kai Schumann | ✭ Laura Osswald | ✭ Annette Strasser | ✭ Fabian Oscar Wien | ✭ Julia Koschitz


· · · · · · · · · · · · · · · : : | Sinopsis | : : · · · · · · · · · · · · · · ·

Sinopsis: En “Diario de una doctora”, definida como una versión aleman de “Anatomía de Grey” con una mezcla de “El diario de Bridget Jones”, a Gretchen Haase (Diana Amft) se le acumulan los problemas. Su prometido le ha engañado con otra el mismo día en que ella hacía la última prueba del vestido de novia, así que necesita cambiar de aires. ¿La solución? volver a casa de sus padres, olvidarse del amor, ponerse a régimen y centrarse en su trabajo de residente. Pero, a estas alturas de la vida, la protagonista de Diario de una doctora ya sabe que los planes no siempre salen como tenía previsto. El aprendizaje para convertirse en cirujano va a poner a prueba sus habilidades como médico y, por si fuera poco, en seguida va a verse inmersa en un triángulo amoroso con los doctores Marc Meier (Florian David Fitz), su amor platónico del instituto, y Mehdi Kaan (Kai Schumann), un ginecólogo tierno y atento pero que guarda un oscuro secreto…


FilmAffinity Diario de una doctora – los hombres son la mejor medicina (Serie de TV) (2008) – FilmAffinity


Temporada: 1
Nº de Capitulos: 8
Rip: DVD+DVB
Formato: 480p
Contenedor: AVI
Audio: Castellano e Inglés
Tamaño: 600MB





General
Format : AVI
Format/Info : Audio Video Interleave
File size : 623 MiB
Duration : 44mn 17s
Overall bit rate : 1 968 Kbps


Video
ID : 0
Format : MPEG-4 Visual
Format profile : Advanced Simple@L5
Format settings, BVOP : 2
Format settings, QPel : No
Format settings, GMC : No warppoints
Format settings, Matrix : Default (H.263)
Codec ID : XVID
Codec ID/Hint : XviD
Duration : 44mn 17s
Bit rate : 1 633 Kbps
Width : 704 pixels
Height : 400 pixels
Display aspect ratio : 16:9
Frame rate : 25.000 fps
Color space : YUV
Chroma subsampling : 4:2:0
Bit depth : 8 bits
Scan type : Progressive
Compression mode : Lossy
Bits/(Pixel*Frame) : 0.232
Stream size : 517 MiB (83%)
Writing library : XviD 1.2.1 (UTC 2008-12-04)

Audio #1
ID : 1
Format : MPEG Audio
Format version : Version 1
Format profile : Layer 3
Mode : Joint stereo
Codec ID : 55
Codec ID/Hint : MP3
Duration : 44mn 17s
Bit rate mode : Constant
Bit rate : 160 Kbps
Channel(s) : 2 channels
Sampling rate : 48.0 KHz
Compression mode : Lossy
Stream size : 50.7 MiB (8%)
Alignment : Split accross interleaves
Interleave, duration : 40 ms (1.00 video frame)
Interleave, preload duration : 500 ms
Writing library : LAME3.90.3

Audio #2
ID : 2
Format : MPEG Audio
Format version : Version 1
Format profile : Layer 3
Mode : Joint stereo
Mode extension : MS Stereo
Codec ID : 55
Codec ID/Hint : MP3
Duration : 44mn 17s
Bit rate mode : Constant
Bit rate : 160 Kbps
Channel(s) : 2 channels
Sampling rate : 48.0 KHz
Compression mode : Lossy
Stream size : 50.7 MiB (8%)
Alignment : Split accross interleaves
Interleave, duration : 40 ms (1.00 video frame)
Interleave, preload duration : 500 ms



Links Temporada 1

Uploaded Diario de una Doctora T1 | DVD+DVB | SD – Pastebin.com

· · · · · · · · · · · · · · · : : | Otras Temporadas | : : · · · · · · · · · · · · · · ·



Diario de una Doctora T.1 [Temporada-Capitulos][Subtitulada][MEGA]


^^^Descargar Diario de una Doctora T.1^^^

Deja tu comentario!