Downton Abbey T.1


^^^Descargar Downton Abbey T.1^^^

Downton Abbey T.1 [DVDRip Español Latino][MEGA]

Downton Abbey | Temporada 1 | Capitulos [7/7]



· · · · · · · · · · · · · · · : : | Ficha Técnica | : : · · · · · · · · · · · · · · ·

Título: Downton Abbey
Título Original: Downton Abbey
Año: 2010
País: Reino Unido
Duración: 50 min.
Género: Drama
Creador: Julian Fellowes
Productora: Carnival Films


· · · · · · · · · · · · · · · : : | Reparto | : : · · · · · · · · · · · · · · ·

✭ Hugh Bonneville | ✭ Maggie Smith | ✭ Elizabeth McGovern | ✭ Penelope Wilton | ✭ Jessica Brown Findlay | ✭ Laura Carmichael | ✭ Jim Carter | ✭ Brendan Coyle | ✭ Michelle Dockery | ✭ Siobhan Finneran


· · · · · · · · · · · · · · · : : | Sinopsis | : : · · · · · · · · · · · · · · ·

Sinopsis: Año 1912. La vida en el condado de Downton Abbey (Inglaterra) cambia cuando el futuro heredero muere en el hundimiento del Titanic. El nuevo heredero es un joven abogado de clase media Matthew (Dan Stevens), primo lejano del conde. Esto se debe a que el conde Robert Crawley (Hugh Bonneville) y la condesa Cora Crawley (Elizabeth McGovern), no tienen hijos varones, sólo hijas: Mary (Michelle Dockery), Edith (Laura Carmichael) y Sybill (Jessica Brown-Findlay), que no pueden heredar. Esta decisión no gusta a algunos miembros de la familia ni a todos los criados…


WebSite Vuelve DOWNTON ABBEY! La Serie de Televisión y Videos online – ANTENA 3 TV
FilmAffinity Downton Abbey (Serie de TV) (2010) – FilmAffinity
IMDB “Downton Abbey” (2010)
YouTube http://down.descargar-1link.net/decode.php?h=aHR0cDovL3d3dy55b3V0dWJlLmNvbS92LzJNM21vRWVFcnI4


Temporada: 1
Nº de Capitulos: 7
Rip: BDRip
Formato: 480p
Contenedor: AVI
Audio: Castellano e Inglés
Tamaño: 700MB





General
Format : AVI
Format/Info : Audio Video Interleave
File size : 740 MiB
Duration : 47mn 32s
Overall bit rate : 2 176 Kbps


Video
ID : 0
Format : MPEG-4 Visual
Format profile : Advanced Simple@L5
Format settings, BVOP : 2
Format settings, QPel : No
Format settings, GMC : No warppoints
Format settings, Matrix : Default (H.263)
Codec ID : XVID
Codec ID/Hint : XviD
Duration : 47mn 32s
Bit rate : 1 777 Kbps
Width : 704 pixels
Height : 396 pixels
Display aspect ratio : 16:9
Frame rate : 25.000 fps
Original frame rate : 23.976 fps
Color space : YUV
Chroma subsampling : 4:2:0
Bit depth : 8 bits
Scan type : Progressive
Compression mode : Lossy
Bits/(Pixel*Frame) : 0.255
Stream size : 604 MiB (82%)
Writing library : XviD 1.2.1 (UTC 2008-12-04)

Audio #1
ID : 1
Format : MPEG Audio
Format version : Version 1
Format profile : Layer 3
Mode : Joint stereo
Codec ID : 55
Codec ID/Hint : MP3
Duration : 47mn 30s
Bit rate mode : Constant
Bit rate : 192 Kbps
Channel(s) : 2 channels
Sampling rate : 48.0 KHz
Compression mode : Lossy
Stream size : 65.2 MiB (9%)
Alignment : Aligned on interleaves
Interleave, duration : 40 ms (1.00 video frame)
Interleave, preload duration : 504 ms

Audio #2
ID : 2
Format : AC-3
Format/Info : Audio Coding 3
Mode extension : CM (complete main)
Format settings, Endianness : Big
Codec ID : 2000
Duration : 47mn 32s
Bit rate mode : Constant
Bit rate : 192 Kbps
Channel(s) : 2 channels
Channel positions : Front: L R
Sampling rate : 48.0 KHz
Bit depth : 16 bits
Compression mode : Lossy
Stream size : 65.3 MiB (9%)
Alignment : Split accross interleaves
Interleave, duration : 40 ms (1.00 video frame)
Interleave, preload duration : 500 ms



Links Temporada 1

Uploaded Downton Abbey T1 | BDRip | SD – Pastebin.com

· · · · · · · · · · · · · · · : : | Otras Temporadas | : : · · · · · · · · · · · · · · ·


☆ Temporada 2 en SD Aquí
☆ Temporada 3 en SD Aquí


★ Temporada 1 en HD Aquí
★ Temporada 2 en HD Aquí
Downton Abbey T.1 [DVDRip Español Latino][MEGA]


^^^Descargar Downton Abbey T.1^^^

Deja tu comentario!