Homeland Temporada 2 en español


^^^Descargar Homeland Temporada 2 en español^^^

Homeland Temporada 2 en español [Temporada-Capitulos][Subtitulada][MEGA]

Homeland | Temporada 2 | Capitulos [07/12]



· · · · · · · · · · · · · · · : : | Ficha Técnica | : : · · · · · · · · · · · · · · ·

Título: Homeland
Título Original: Homeland
Año: 2011
País: USA
Duración: 50 min.
Género: Thriller
Creador: Howard Gordon, Alex Gansa, Gideon Raff
Productora: Fox 21


· · · · · · · · · · · · · · · : : | Reparto | : : · · · · · · · · · · · · · · ·

✭ Claire Danes | ✭ Damian Lewis | ✭ Mandy Patinkin | ✭ Morena Baccarin | ✭ David Harewood | ✭ Diego Klattenhoff | ✭ Jackson Pace


· · · · · · · · · · · · · · · : : | Sinopsis | : : · · · · · · · · · · · · · · ·

Sinopsis: El sargento de la Marina Scott Brody regresa a casa ocho años después de su desaparición en Irak. Carrie Mathison, una impulsiva agente de la CIA, sospecha que se podría estar preparando un ataque secreto contra Estados Unidos y piensa que quizá Brody esté en condiciones de descifrar las claves. Carrie tiene una hipótesis: es imposible haber pasado tantos años en prisión sin averiguar muchas cosas respecto al enemigo. Serie basada en la original israelí Hatufim/ Prisoners of War creada por Gideon Raff.


WebSite http://d.descargar-1link.net/decode.php?h=aHR0cDovL3d3dy5zaG8uY29tL3NpdGUvaG9tZWxhbmQvaG9tZS5zaG8=
FilmAffinity http://d.descargar-1link.net/decode.php?h=aHR0cDovL3d3dy5maWxtYWZmaW5pdHkuY29tL2VzL2ZpbG0zMDgxNjAuaHRtbA==


Temporada: 2
Nº de Capitulos: 12
Rip: HDiTunes
Formato: 720p
Contenedor: MKV
Audio: Castellano e Inglés
Tamaño: 1.6GB





General
Format : Matroska
Format version : Version 2
File size : 1.50 GiB
Duration : 48mn 20s
Overall bit rate : 4 431 Kbps


Video
ID : 1
Format : AVC
Format/Info : Advanced Video Codec
Format profile : [email protected]
Format settings, CABAC : No
Format settings, ReFrames : 2 frames
Format settings, GOP : N=1
Codec ID : V_MPEG4/ISO/AVC
Duration : 48mn 20s
Bit rate : 3 766 Kbps
Width : 1 280 pixels
Height : 720 pixels
Display aspect ratio : 16:9
Frame rate mode : Constant
Frame rate : 23.976 fps
Color space : YUV
Chroma subsampling : 4:2:0
Bit depth : 8 bits
Scan type : Progressive
Bits/(Pixel*Frame) : 0.170
Stream size : 1.27 GiB (85%)
Default : Yes
Forced : No


Audio #1
ID : 2
Format : AC-3
Format/Info : Audio Coding 3
Format profile : Dolby Digital
Mode extension : CM (complete main)
Format settings, Endianness : Big
Codec ID : A_AC3
Duration : 48mn 20s
Bit rate mode : Constant
Bit rate : 192 Kbps
Channel(s) : 2 channels
Channel positions : Front: L R
Sampling rate : 48.0 KHz
Bit depth : 16 bits
Compression mode : Lossy
Stream size : 66.4 MiB (4%)
Title : Castellano
Language : Spanish
Default : Yes
Forced : No

Audio #2
ID : 3
Format : AC-3
Format/Info : Audio Coding 3
Mode extension : CM (complete main)
Format settings, Endianness : Big
Codec ID : A_AC3
Duration : 48mn 20s
Bit rate mode : Constant
Bit rate : 384 Kbps
Channel(s) : 6 channels
Channel positions : Front: L C R, Side: L R, LFE
Sampling rate : 48.0 KHz
Bit depth : 16 bits
Compression mode : Lossy
Stream size : 133 MiB (9%)
Title : Ingles
Language : English
Default : No
Forced : No

Text #1
ID : 4
Format : UTF-8
Codec ID : S_TEXT/UTF8
Codec ID/Info : UTF-8 Plain Text
Title : Castellano
Language : Spanish
Default : No
Forced : No

Text #2
ID : 5
Format : UTF-8
Codec ID : S_TEXT/UTF8
Codec ID/Info : UTF-8 Plain Text
Title : Ingles
Language : English
Default : No
Forced : No


· · · · · · · · · · · · · · · : : | Servidores de Descarga | : : · · · · · · · · · · · · · · ·
Uploaded







Código:
 EP01: http://***********/xftb076t
EP02: http://***********/1auyy9nr
EP03: http://***********/v7zxuz1t
EP04: http://***********/t1kx2ccm
EP05: http://***********/7vuxayni
EP06: http://***********/fnag9bb3
EP07: http://***********/8zh55mlu

· · · · · · · · · · · · · · · : : | Otras Temporadas | : : · · · · · · · · · · · · · · ·



★ Temporada 2 en HD Aquí


☆ Temporada 1 en SD Aquí
☆ Temporada 2 en SD Aquí
Homeland Temporada 2 en español [Temporada-Capitulos][Subtitulada][MEGA]


^^^Descargar Homeland Temporada 2 en español^^^

Deja tu comentario!