[DVDRip] Papa se volvio Loco (para fans de Pimpinela – Lucia Galan)


>>>Click aquí para Descargar [DVDRip] Papa se volvio Loco (para fans de Pimpinela – Lucia Galan)<<<

Papa se volvio Loco (para fans de Pimpinela – Lucia Galan) [DVDRip Español Latino][MEGA]

Esta película va dirigida a los Fans del Duo Pimpinela, ya que en ella sale Lucia Galan, teniendo un papel protagonista. Es una película que ya tiene sus años, pero no esta de más recordarla. Papá Se Volvió Loco es una película argentina del año 2005







Sinopsis



Con una apacible vida de casados, Juan y Ana deciden pasar una segunda luna de miel en el Caribe para revivir el romance y la pasión. Sin embargo, una aparición inesperada va a dar por tierra los planes de la pareja. Una joven morena, veinteañera y con un cuerpo escultural, llamada Dolores, se transforma en el sueño de Juan. Después de verla repetidas veces compartiendo el mismo hotel y las mismas playas, decide enamorarla. Cuando llega el momento de regresar a Buenos Aires deviene el dilema: ¿Qué hacer?, ¿Abandonar a su mujer y a sus hijos o dejar a la morena?



Actores y personajes



Guillermo Francella como Juan Géntile



Lucía Galán como Ana Géntile



Yahaira Guzmán como Dolores



Daniel Aráoz como Mario



Ingrid Grudke como Camila






Patricio Contreras como Don Pablo




Capturas Video







Información Video …


Calidad: DVDRip
Audio:Español Latino
Resolución: 512×384
Tamaño de archivo: 701 MB













… más información según MediaInfo



Spoiler



General
Format : AVI
Format/Info : Audio Video Interleave
File size : 702 MiB
Duration : 1h 28mn
Overall bit rate mode : Variable
Overall bit rate : 1 103 Kbps
Writing application : VirtualDubMod 1.5.1.1a (build 1639/release)
Writing library : VirtualDubMod build 1639/release

Video
ID : 0
Format : MPEG-4 Visual
Format profile : Simple@L3
Format settings, BVOP : 2
Format settings, QPel : No
Format settings, GMC : No warppoints
Format settings, Matrix : Default (H.263)
Codec ID : XVID
Codec ID/Hint : XviD
Duration : 1h 28mn
Bit rate : 969 Kbps
Width : 512 pixels
Height : 384 pixels
Display aspect ratio : 4:3
Frame rate : 23.976 fps
Color space : YUV
Chroma subsampling : 4:2:0
Bit depth : 8 bits
Scan type : Progressive
Compression mode : Lossy
Bits/(Pixel*Frame) : 0.206
Stream size : 617 MiB (88%)
Writing library : XviD 1.0.0 (UTC 2004-05-09)

Audio
ID : 1
Format : MPEG Audio
Format version : Version 1
Format profile : Layer 3
Mode : Joint stereo
Codec ID : 55
Codec ID/Hint : MP3
Duration : 1h 28mn
Bit rate mode : Variable
Bit rate : 121 Kbps
Channel(s) : 2 channels
Sampling rate : 48.0 KHz
Compression mode : Lossy
Stream size : 77.2 MiB (11%)
Alignment : Aligned on interleaves
Interleave, duration : 24 ms (0.58 video frame)
Interleave, preload duration : 490 ms



CON UN SIMPLE “GRACIAS” ME DOY POR SATISFECHO, PERO EL QUE PUEDA DEJAR PUNTOS MEJOR Papa se volvio Loco (para fans de Pimpinela – Lucia Galan) [DVDRip Español Latino][MEGA]

Deja tu comentario!