[DVDRip] Transformers 3 (2011) [3D SBS][BDRip 1080][Latino/Latino/Ingles]


^^^Descargar [DVDRip] Transformers 3 (2011) [3D SBS][BDRip 1080][Latino/Latino/Ingles]^^^

Transformers 3 (2011) [3D SBS][BDRip 1080][Latino/Castellano/Ingles] [DVDRip Latino][HDRip][MEGA]





Los Autobots Bumblebee, Ratchet, Ironhide y Sideswipe, encabezados por Optimus Prime, vuelven a la acción, enfrentándose a los malvados Decepticons, quienes están determinados a ajustar cuentas por su derrota de 2009 en ‘Transformers 2: La Venganza de los Caídos’. En esta nueva película los Autobots y los Decepticons se involucran en la peligrosa carrera espacial entre los Estados Unidos y Rusia, y una vez más el humano Sam Witwicky tendrá que acudir al rescate de sus amigos robots. También hay nuevos personajes, incluyendo a un nuevo villano que toma la forma de Shockwave, y un viejo conocido de los Transformers que reina en Cybertron mientras los Autobots y Decepticons luchan en la Tierra.



Título: Transformers: El lado oscuro de la Luna
Título original: Transformers: Dark of The Moon
País: USA
Estreno en USA: 29/06/2011
Estreno en España: 29/06/2011
Productora: DreamWorks Pictures (Paramount)
Director: Michael Bay
Guión: Ehren Kruger
Reparto: Shia LaBeouf, Rosie Huntington-Whiteley, Josh Duhamel, Ken Jeong, Hugo Weaving, Tyrese Gibson, [b]Patrick Dempsey, John Malkovich, Leonard Nimoy, Alan Tudyk, Frances McDormand, John Turturro, Peter Cullen, Frank Welker, Tom Kenny





Código:
General
Unique ID : 229076866854308095637441594537456873838 (0xAC569988D482EEB3AE127121A912B16E)
Complete name : Transformers 3 3D SBS BDRip 1080p Latino By Chamako.mkv
Format : Matroska
Format version : Version 2
File size : 14.5 GiB
Duration : 2h 34mn
Overall bit rate : 13.5 Mbps
Movie name : wWw.ReleaseTV.Net – Transformers 3 2011 3D SBS 1080P Latino By Chamako
Encoded date : UTC 2013-01-23 05:27:39
Writing application : mkvmerge v3.4.0 (‘Rapunzel’) built on May 15 2010 09:38:20
Writing library : libebml v0.8.0 + libmatroska v0.9.0
Video
ID : 1
Format : AVC
Format/Info : Advanced Video Codec
Format profile : [email protected]
Format settings, CABAC : Yes
Format settings, ReFrames : 2 frames
Codec ID : V_MPEG4/ISO/AVC
Duration : 2h 34mn
Bit rate : 11.7 Mbps
Width : 1 920 pixels
Height : 1 080 pixels
Display aspect ratio : 16:9
Frame rate mode : Constant
Frame rate : 23.976 fps
Color space : YUV
Chroma subsampling : 4:2:0
Bit depth : 8 bits
Scan type : Progressive
Bits/(Pixel*Frame) : 0.236
Stream size : 12.6 GiB (87%)
Title : Chamako – Transformers 3 2011
Writing library : x264 core
Default : No
Forced : No
Color primaries : BT.709
Transfer characteristics : BT.709
Matrix coefficients : BT.709
Audio #1
ID : 2
Format : AC-3
Format/Info : Audio Coding 3
Mode extension : CM (complete main)
Format settings, Endianness : Big
Codec ID : A_AC3
Duration : 2h 34mn
Bit rate mode : Constant
Bit rate : 640 Kbps
Channel(s) : 6 channels
Channel positions : Front: L C R, Side: L R, LFE
Sampling rate : 48.0 KHz
Bit depth : 16 bits
Compression mode : Lossy
Stream size : 707 MiB (5%)
Title : Chamako – Latino 5.1
Language : Spanish
Default : Yes
Forced : Yes
Audio #2
ID : 3
Format : AC-3
Format/Info : Audio Coding 3
Mode extension : CM (complete main)
Format settings, Endianness : Big
Codec ID : A_AC3
Duration : 2h 34mn
Bit rate mode : Constant
Bit rate : 384 Kbps
Channel(s) : 6 channels
Channel positions : Front: L C R, Side: L R, LFE
Sampling rate : 48.0 KHz
Bit depth : 16 bits
Compression mode : Lossy
Stream size : 424 MiB (3%)
Title : Castellano
Language : Spanish
Default : No
Forced : No
Audio #3
ID : 4
Format : AC-3
Format/Info : Audio Coding 3
Mode extension : CM (complete main)
Format settings, Endianness : Big
Codec ID : A_AC3
Duration : 2h 34mn
Bit rate mode : Constant
Bit rate : 448 Kbps
Channel(s) : 6 channels
Channel positions : Front: L C R, Side: L R, LFE
Sampling rate : 48.0 KHz
Bit depth : 16 bits
Compression mode : Lossy
Stream size : 495 MiB (3%)
Title : English 5.1
Language : English
Default : No
Forced : No
Text #1
ID : 5
Format : UTF-8
Codec ID : S_TEXT/UTF8
Codec ID/Info : UTF-8 Plain Text
Title : Spanish Forzados
Language : Spanish
Default : No
Forced : Yes
Text #2
ID : 6
Format : UTF-8
Codec ID : S_TEXT/UTF8
Codec ID/Info : UTF-8 Plain Text
Title : English
Default : No
Forced : No
Text #3
ID : 7
Format : UTF-8
Codec ID : S_TEXT/UTF8
Codec ID/Info : UTF-8 Plain Text
Title : Spanish
Language : Spanish
Default : No
Forced : No
Menu
00:00:00.000 : en:(01)00:00:00:000
00:08:52.573 : en:(02)00:08:52:573
00:14:26.615 : en:(03)00:14:26:615
00:20:20.928 : en:(04)00:20:20:928
00:28:48.143 : en:(05)00:28:48:143
00:36:18.634 : en:(06)00:36:18:634
00:45:18.549 : en:(07)00:45:18:549
00:51:53.026 : en:(08)00:51:53:026
00:56:34.224 : en:(09)00:56:34:224
01:04:13.307 : en:(10)01:04:13:307
01:12:56.705 : en:(11)01:12:56:705
01:19:09.077 : en:(12)01:19:09:077
01:23:41.391 : en:(13)01:23:41:391
01:28:44.819 : en:(14)01:28:44:819
01:35:13.082 : en:(15)01:35:13:082
01:42:44.158 : en:(16)01:42:44:158
01:49:12.337 : en:(17)01:49:12:337
01:56:42.912 : en:(18)01:56:42:912
02:04:59.116 : en:(19)02:04:59:116
02:11:29.590 : en:(20)02:11:29:590
02:19:10.884 : en:(21)02:19:10:884
02:25:37.520 : en:(22)02:25:37:520
02:34:23.337 : en:(23)02:34:23:337








2 ARCHIVO DE RECUPERACIÓN
Añadir el link al Jdownloader o MiPony, y empieza a del host que mas te agrade
SERVIDORES DISPONIBLES

Transformers 3 (2011) [3D SBS][BDRip 1080][Latino/Castellano/Ingles]

CONTRASEÑA: chamako (todo minusculas)

Si Algun link cae solo enviame un MP con el link del post y lo resubiré

Transformers 3 (2011) [3D SBS][BDRip 1080][Latino/Castellano/Ingles] [DVDRip Latino][HDRip][MEGA]


^^^Descargar [DVDRip] Transformers 3 (2011) [3D SBS][BDRip 1080][Latino/Latino/Ingles]^^^

Deja tu comentario!